  0
SECTION
  2
HEADER
  9
$ACADVER
  1
AC1009
  9
$INSBASE
 10
0.0
 20
0.0
 30
0.0
  9
$EXTMIN
 10
-0.877190523854626
 20
-1.9406977926347151
 30
-0.0015258207003583
  9
$EXTMAX
 10
12.53340926527166
 20
2.702262558755304
 30
0.0000000349246037
  9
$LIMMIN
 10
0.0
 20
0.0
  9
$LIMMAX
 10
12.0
 20
9.0
  9
$ORTHOMODE
 70
     1
  9
$REGENMODE
 70
     1
  9
$FILLMODE
 70
     1
  9
$QTEXTMODE
 70
     0
  9
$MIRRTEXT
 70
     1
  9
$DRAGMODE
 70
     2
  9
$LTSCALE
 40
1.0
  9
$OSMODE
 70
    37
  9
$ATTMODE
 70
     1
  9
$TEXTSIZE
 40
0.2
  9
$TRACEWID
 40
0.05
  9
$TEXTSTYLE
  7
STANDARD
  9
$CLAYER
  8
0
  9
$CELTYPE
  6
BYLAYER
  9
$CECOLOR
 62
   256
  9
$DIMSCALE
 40
1.0
  9
$DIMASZ
 40
0.18
  9
$DIMEXO
 40
0.0625
  9
$DIMDLI
 40
0.38
  9
$DIMRND
 40
0.0
  9
$DIMDLE
 40
0.0
  9
$DIMEXE
 40
0.18
  9
$DIMTP
 40
0.0
  9
$DIMTM
 40
0.0
  9
$DIMTXT
 40
0.18
  9
$DIMCEN
 40
0.09
  9
$DIMTSZ
 40
0.0
  9
$DIMTOL
 70
     0
  9
$DIMLIM
 70
     0
  9
$DIMTIH
 70
     1
  9
$DIMTOH
 70
     1
  9
$DIMSE1
 70
     0
  9
$DIMSE2
 70
     0
  9
$DIMTAD
 70
     0
  9
$DIMZIN
 70
     0
  9
$DIMBLK
  1

  9
$DIMASO
 70
     1
  9
$DIMSHO
 70
     1
  9
$DIMPOST
  1

  9
$DIMAPOST
  1

  9
$DIMALT
 70
     0
  9
$DIMALTD
 70
     2
  9
$DIMALTF
 40
25.399999999999999
  9
$DIMLFAC
 40
1.0
  9
$DIMTOFL
 70
     0
  9
$DIMTVP
 40
0.0
  9
$DIMTIX
 70
     0
  9
$DIMSOXD
 70
     0
  9
$DIMSAH
 70
     0
  9
$DIMBLK1
  1

  9
$DIMBLK2
  1

  9
$DIMSTYLE
  2
STANDARD
  9
$DIMCLRD
 70
     0
  9
$DIMCLRE
 70
     0
  9
$DIMCLRT
 70
     0
  9
$DIMTFAC
 40
1.0
  9
$DIMGAP
 40
0.09
  9
$LUNITS
 70
     2
  9
$LUPREC
 70
     4
  9
$SKETCHINC
 40
0.1
  9
$FILLETRAD
 40
0.0
  9
$AUNITS
 70
     0
  9
$AUPREC
 70
     0
  9
$MENU
  1
.
  9
$ELEVATION
 40
0.0
  9
$PELEVATION
 40
0.0
  9
$THICKNESS
 40
0.0
  9
$LIMCHECK
 70
     0
  9
$BLIPMODE
 70
     0
  9
$CHAMFERA
 40
0.5
  9
$CHAMFERB
 40
0.5
  9
$SKPOLY
 70
     0
  9
$TDCREATE
 40
2456372.7864472908
  9
$TDUPDATE
 40
2456377.731567916
  9
$TDINDWG
 40
0.0666787963
  9
$TDUSRTIMER
 40
0.0666787963
  9
$USRTIMER
 70
     1
  9
$ANGBASE
 50
0.0
  9
$ANGDIR
 70
     0
  9
$PDMODE
 70
     0
  9
$PDSIZE
 40
0.0
  9
$PLINEWID
 40
0.0
  9
$COORDS
 70
     2
  9
$SPLFRAME
 70
     0
  9
$SPLINETYPE
 70
     6
  9
$SPLINESEGS
 70
     8
  9
$ATTDIA
 70
     0
  9
$ATTREQ
 70
     1
  9
$HANDLING
 70
  4097
  9
$HANDSEED
  5
1D6
  9
$SURFTAB1
 70
     6
  9
$SURFTAB2
 70
     6
  9
$SURFTYPE
 70
     6
  9
$SURFU
 70
     6
  9
$SURFV
 70
     6
  9
$UCSNAME
  2

  9
$UCSORG
 10
0.0
 20
0.0
 30
0.0
  9
$UCSXDIR
 10
1.0
 20
0.0
 30
0.0
  9
$UCSYDIR
 10
0.0
 20
1.0
 30
0.0
  9
$PUCSNAME
  2

  9
$PUCSORG
 10
0.0
 20
0.0
 30
0.0
  9
$PUCSXDIR
 10
1.0
 20
0.0
 30
0.0
  9
$PUCSYDIR
 10
0.0
 20
1.0
 30
0.0
  9
$USERI1
 70
     0
  9
$USERI2
 70
     0
  9
$USERI3
 70
     0
  9
$USERI4
 70
     0
  9
$USERI5
 70
     0
  9
$USERR1
 40
0.0
  9
$USERR2
 40
0.0
  9
$USERR3
 40
0.0
  9
$USERR4
 40
0.0
  9
$USERR5
 40
0.0
  9
$WORLDVIEW
 70
     1
  9
$SHADEDGE
 70
     3
  9
$SHADEDIF
 70
    70
  9
$TILEMODE
 70
     1
  9
$MAXACTVP
 70
    64
  9
$PLIMCHECK
 70
     0
  9
$PEXTMIN
 10
1.0000000000000000E+020
 20
1.0000000000000000E+020
 30
1.0000000000000000E+020
  9
$PEXTMAX
 10
-1.0000000000000000E+020
 20
-1.0000000000000000E+020
 30
-1.0000000000000000E+020
  9
$PLIMMIN
 10
0.0
 20
0.0
  9
$PLIMMAX
 10
12.0
 20
9.0
  9
$UNITMODE
 70
     0
  9
$VISRETAIN
 70
     1
  9
$PLINEGEN
 70
     0
  9
$PSLTSCALE
 70
     1
  0
ENDSEC
  0
SECTION
  2
TABLES
  0
TABLE
  2
VPORT
 70
    16
  0
VPORT
  2
*ACTIVE
 70
     0
 10
0.0
 20
0.0
 11
1.0
 21
1.0
 12
5.8281093707085194
 22
0.1166733434461911
 13
0.0
 23
0.0
 14
0.5
 24
0.5
 15
0.5
 25
0.5
 16
0.0
 26
0.0
 36
1.0
 17
0.0
 27
0.0
 37
0.0
 40
6.9094995088245064
 41
1.9472016895459341
 42
50.0
 43
0.0
 44
0.0
 50
0.0
 51
0.0
 71
     0
 72
   100
 73
     1
 74
     3
 75
     0
 76
     0
 77
     0
 78
     0
  0
ENDTAB
  0
TABLE
  2
LTYPE
 70
     1
  0
LTYPE
  2
CONTINUOUS
 70
     0
  3
Solid line
 72
    65
 73
     0
 40
0.0
  0
ENDTAB
  0
TABLE
  2
LAYER
 70
     3
  0
LAYER
  2
0
 70
     0
 62
     7
  6
CONTINUOUS
  0
LAYER
  2
DEFPOINTS
 70
     0
 62
     7
  6
CONTINUOUS
  0
LAYER
  2
DIMS
 70
     1
 62
    -5
  6
CONTINUOUS
  0
ENDTAB
  0
TABLE
  2
STYLE
 70
     1
  0
STYLE
  2
STANDARD
 70
     0
 40
0.0
 41
1.0
 50
0.0
 71
     0
 42
0.2
  3
txt
  4

  0
ENDTAB
  0
TABLE
  2
VIEW
 70
     0
  0
ENDTAB
  0
TABLE
  2
UCS
 70
     0
  0
ENDTAB
  0
TABLE
  2
APPID
 70
     1
  0
APPID
  2
ACAD
 70
     0
  0
ENDTAB
  0
TABLE
  2
DIMSTYLE
 70
     1
  0
DIMSTYLE
  2
STANDARD
 70
     0
  3

  4

  5

  6

  7

 40
1.0
 41
0.18
 42
0.0625
 43
0.38
 44
0.18
 45
0.0
 46
0.0
 47
0.0
 48
0.0
140
0.18
141
0.09
142
0.0
143
25.399999999999999
144
1.0
145
0.0
146
1.0
147
0.09
 71
     0
 72
     0
 73
     1
 74
     1
 75
     0
 76
     0
 77
     0
 78
     0
170
     0
171
     2
172
     0
173
     0
174
     0
175
     0
176
     0
177
     0
178
     0
  0
ENDTAB
  0
ENDSEC
  0
SECTION
  2
BLOCKS
  0
BLOCK
  8
0
  2
$MODEL_SPACE
 70
     0
 10
0.0
 20
0.0
 30
0.0
  3
$MODEL_SPACE
  1

  0
ENDBLK
  5
21
  8
0
  0
BLOCK
 67
     1
  8
0
  2
$PAPER_SPACE
 70
     0
 10
0.0
 20
0.0
 30
0.0
  3
$PAPER_SPACE
  1

  0
ENDBLK
  5
1D
 67
     1
  8
0
  0
BLOCK
  8
0
  2
*D1
 70
     1
 10
0.0
 20
0.0
 30
0.0
  3
*D1
  1

  0
LINE
  5
9D
  8
0
 62
     0
 10
-1.062727496256507
 20
-0.0104781901470569
 30
0.0
 11
-1.062727496256507
 21
-2.2425883542692291
 31
0.0
  0
LINE
  5
9E
  8
0
 62
     0
 10
12.71994008322981
 20
-0.0737915586579713
 30
0.0
 11
12.71994008322981
 21
-2.2425883542692291
 31
0.0
  0
LINE
  5
9F
  8
0
 62
     0
 10
-0.8827274962565073
 20
-2.062588354269228
 30
0.0
 11
5.3186062934866536
 21
-2.062588354269228
 31
0.0
  0
LINE
  5
A0
  8
0
 62
     0
 10
12.53994008322981
 20
-2.062588354269228
 30
0.0
 11
6.3386062934866541
 21
-2.062588354269228
 31
0.0
  0
SOLID
  5
A1
  8
0
 62
     0
 10
-0.8827274962565073
 20
-2.0325883542692291
 30
0.0
 11
-0.8827274962565073
 21
-2.0925883542692278
 31
0.0
 12
-1.062727496256507
 22
-2.062588354269228
 32
0.0
 13
-1.062727496256507
 23
-2.062588354269228
 33
0.0
  0
SOLID
  5
A2
  8
0
 62
     0
 10
12.53994008322981
 20
-2.0325883542692291
 30
0.0
 11
12.53994008322981
 21
-2.0925883542692278
 31
0.0
 12
12.71994008322981
 22
-2.062588354269228
 32
0.0
 13
12.71994008322981
 23
-2.062588354269228
 33
0.0
  0
TEXT
  5
A3
  8
0
 62
     0
 10
5.4086062934866543
 20
-2.1525883542692279
 30
0.0
 40
0.18
  1
13.783
  0
POINT
  5
A4
  8
DEFPOINTS
 62
     0
 10
-1.062727496256507
 20
0.0520218098529431
 30
0.0
  0
POINT
  5
A5
  8
DEFPOINTS
 62
     0
 10
12.71994008322981
 20
-0.0112915586579713
 30
0.0
  0
POINT
  5
A6
  8
DEFPOINTS
 62
     0
 10
12.71994008322981
 20
-2.062588354269228
 30
0.0
  0
ENDBLK
  5
A8
  8
0
  0
BLOCK
  8
0
  2
*D2
 70
     1
 10
0.0
 20
0.0
 30
0.0
  3
*D2
  1

  0
LINE
  5
C1
  8
0
 62
     0
 10
0.7555364697217734
 20
3.6272402011902778
 30
0.0
 11
0.9355364697217734
 21
3.6272402011902778
 31
0.0
  0
LINE
  5
C2
  8
0
 62
     0
 10
0.9355364697217734
 20
3.6272402011902778
 30
0.0
 11
1.6140383187021621
 21
3.316555784135689
 31
0.0
  0
TEXT
  5
C3
  8
0
 62
     0
 10
0.1255364697217729
 20
3.5372402011902779
 30
0.0
 40
0.18
  1
.489
  0
SOLID
  5
C4
  8
0
 62
     0
 10
1.6265281388664039
 20
3.343832228043663
 30
0.0
 11
1.6015484985379189
 21
3.2892793402277141
 31
0.0
 12
1.7776969821500079
 22
3.2416168631502331
 32
0.0
 13
1.7776969821500079
 23
3.2416168631502331
 33
0.0
  0
LINE
  5
C5
  8
0
 62
     0
 10
1.9099999999999999
 20
3.1398248288116539
 30
0.0
 11
2.089999999999999
 21
3.1398248288116539
 31
0.0
  0
LINE
  5
C6
  8
0
 62
     0
 10
2.0
 20
3.0498248288116541
 30
0.0
 11
2.0
 21
3.2298248288116538
 31
0.0
  0
POINT
  5
C7
  8
DEFPOINTS
 62
     0
 10
1.7776969821500079
 20
3.2416168631502331
 30
0.0
  0
POINT
  5
C8
  8
DEFPOINTS
 62
     0
 10
2.222303017849991
 20
3.0380327944730761
 30
0.0
  0
ENDBLK
  5
CA
  8
0
  0
BLOCK
  8
0
  2
*D3
 70
     1
 10
0.0
 20
0.0
 30
0.0
  3
*D3
  1

  0
LINE
  5
CD
  8
0
 62
     0
 10
0.5872039053715881
 20
3.32882263433003
 30
0.0
 11
1.276445633518096
 21
3.2366188304076782
 31
0.0
  0
TEXT
  5
CE
  8
0
 62
     0
 10
0.2572039053715881
 20
3.238822634330031
 30
0.0
 40
0.18
  1
1.1
  0
SOLID
  5
CF
  8
0
 62
     0
 10
1.280423469200124
 20
3.266353941358989
 30
0.0
 11
1.2724677978360679
 21
3.2068837194563669
 31
0.0
 12
1.454856299225963
 22
3.2127518163155071
 32
0.0
 13
1.454856299225963
 23
3.2127518163155071
 33
0.0
  0
LINE
  5
D0
  8
0
 62
     0
 10
1.909999999999999
 20
3.139824828811653
 30
0.0
 11
2.089999999999999
 21
3.139824828811653
 31
0.0
  0
LINE
  5
D1
  8
0
 62
     0
 10
2.0
 20
3.0498248288116541
 30
0.0
 11
2.0
 21
3.2298248288116529
 31
0.0
  0
POINT
  5
D2
  8
DEFPOINTS
 62
     0
 10
1.454856299225963
 20
3.2127518163155071
 30
0.0
  0
POINT
  5
D3
  8
DEFPOINTS
 62
     0
 10
2.5451437007740361
 20
3.0668978413077999
 30
0.0
  0
ENDBLK
  5
D5
  8
0
  0
BLOCK
  8
0
  2
*D4
 70
     1
 10
0.0
 20
0.0
 30
0.0
  3
*D4
  1

  0
LINE
  5
E1
  8
0
 62
     0
 10
0.6858699910538189
 20
2.6424621954219871
 30
0.0
 11
0.865869991053819
 21
2.6424621954219871
 31
0.0
  0
LINE
  5
E2
  8
0
 62
     0
 10
0.865869991053819
 20
2.6424621954219871
 30
0.0
 11
1.0860247498979589
 21
2.7390091078114511
 31
0.0
  0
TEXT
  5
E3
  8
0
 62
     0
 10
-0.0641300089461809
 20
2.5524621954219868
 30
0.0
 40
0.18
  1
1.636
  0
SOLID
  5
E4
  8
0
 62
     0
 10
1.073976181130418
 20
2.7664833137263418
 30
0.0
 11
1.0980733186655001
 21
2.71153490189656
 31
0.0
 12
1.2508699853873051
 22
2.8113005204166979
 32
0.0
 13
1.2508699853873051
 23
2.8113005204166979
 33
0.0
  0
LINE
  5
E5
  8
0
 62
     0
 10
1.9099999999999999
 20
3.1398248288116539
 30
0.0
 11
2.089999999999999
 21
3.1398248288116539
 31
0.0
  0
LINE
  5
E6
  8
0
 62
     0
 10
2.0
 20
3.0498248288116541
 30
0.0
 11
2.0
 21
3.2298248288116538
 31
0.0
  0
POINT
  5
E7
  8
DEFPOINTS
 62
     0
 10
1.2508699853873051
 20
2.8113005204166979
 30
0.0
  0
POINT
  5
E8
  8
DEFPOINTS
 62
     0
 10
2.7491300146126929
 20
3.46834913720661
 30
0.0
  0
ENDBLK
  5
EA
  8
0
  0
BLOCK
  8
0
  2
*D5
 70
     1
 10
0.0
 20
0.0
 30
0.0
  3
*D5
  1

  0
LINE
  5
ED
  8
0
 62
     0
 10
3.9842222100147691
 20
2.528877559531439
 30
0.0
 11
3.9842222100147691
 21
1.1892138398926491
 31
0.0
  0
LINE
  5
EE
  8
0
 62
     0
 10
5.4822222100147711
 20
2.528877559531439
 30
0.0
 11
5.4822222100147711
 21
1.1892138398926491
 31
0.0
  0
LINE
  5
EF
  8
0
 62
     0
 10
4.1642222100147688
 20
1.369213839892649
 30
0.0
 11
4.3132222100147697
 21
1.369213839892649
 31
0.0
  0
LINE
  5
F0
  8
0
 62
     0
 10
5.3022222100147713
 20
1.369213839892649
 30
0.0
 11
5.1532222100147704
 21
1.369213839892649
 31
0.0
  0
SOLID
  5
F1
  8
0
 62
     0
 10
4.1642222100147688
 20
1.399213839892649
 30
0.0
 11
4.1642222100147688
 21
1.339213839892649
 31
0.0
 12
3.9842222100147691
 22
1.369213839892649
 32
0.0
 13
3.9842222100147691
 23
1.369213839892649
 33
0.0
  0
SOLID
  5
F2
  8
0
 62
     0
 10
5.3022222100147713
 20
1.399213839892649
 30
0.0
 11
5.3022222100147713
 21
1.339213839892649
 31
0.0
 12
5.4822222100147711
 22
1.369213839892649
 32
0.0
 13
5.4822222100147711
 23
1.369213839892649
 33
0.0
  0
TEXT
  5
F3
  8
0
 62
     0
 10
4.4032222100147704
 20
1.2792138398926489
 30
0.0
 40
0.18
  1
1.498
  0
POINT
  5
F4
  8
DEFPOINTS
 62
     0
 10
3.9842222100147691
 20
2.591377559531439
 30
0.0
  0
POINT
  5
F5
  8
DEFPOINTS
 62
     0
 10
5.4822222100147711
 20
2.591377559531439
 30
0.0
  0
POINT
  5
F6
  8
DEFPOINTS
 62
     0
 10
5.4822222100147711
 20
1.369213839892649
 30
0.0
  0
ENDBLK
  5
F8
  8
0
  0
BLOCK
  8
0
  2
*D6
 70
     1
 10
0.0
 20
0.0
 30
0.0
  3
*D6
  1

  0
LINE
  5
FB
  8
0
 62
     0
 10
4.146222210014769
 20
2.2701742154974731
 30
0.0
 11
4.146222210014769
 21
1.79599625658011
 31
0.0
  0
LINE
  5
FC
  8
0
 62
     0
 10
5.3202222100147676
 20
2.2701742154974731
 30
0.0
 11
5.3202222100147676
 21
1.79599625658011
 31
0.0
  0
LINE
  5
FD
  8
0
 62
     0
 10
3.9662222100147688
 20
1.9759962565801099
 30
0.0
 11
3.7862222100147691
 21
1.9759962565801099
 31
0.0
  0
LINE
  5
FE
  8
0
 62
     0
 10
5.5002222100147682
 20
1.9759962565801099
 30
0.0
 11
5.6802222100147679
 21
1.9759962565801099
 31
0.0
  0
SOLID
  5
FF
  8
0
 62
     0
 10
3.9662222100147688
 20
2.0059962565801102
 30
0.0
 11
3.9662222100147688
 21
1.9459962565801101
 31
0.0
 12
4.146222210014769
 22
1.9759962565801099
 32
0.0
 13
4.146222210014769
 23
1.9759962565801099
 33
0.0
  0
SOLID
  5
100
  8
0
 62
     0
 10
5.5002222100147682
 20
2.0059962565801102
 30
0.0
 11
5.5002222100147682
 21
1.9459962565801101
 31
0.0
 12
5.3202222100147676
 22
1.9759962565801099
 32
0.0
 13
5.3202222100147676
 23
1.9759962565801099
 33
0.0
  0
TEXT
  5
101
  8
0
 62
     0
 10
4.4182222100147701
 20
1.8859962565801101
 30
0.0
 40
0.18
  1
1.740
  0
POINT
  5
102
  8
DEFPOINTS
 62
     0
 10
4.146222210014769
 20
2.3326742154974731
 30
0.0
  0
POINT
  5
103
  8
DEFPOINTS
 62
     0
 10
5.3202222100147676
 20
2.3326742154974731
 30
0.0
  0
POINT
  5
104
  8
DEFPOINTS
 62
     0
 10
5.3202222100147676
 20
1.9759962565801099
 30
0.0
  0
ENDBLK
  5
106
  8
0
  0
BLOCK
  8
0
  2
*D7
 70
     1
 10
0.0
 20
0.0
 30
0.0
  3
*D7
  1

  0
LINE
  5
110
  8
0
 62
     0
 10
0.0
 20
0.0625
 30
0.0
 11
0.0000000000000001
 21
2.0828433267834789
 31
0.0
  0
LINE
  5
111
  8
0
 62
     0
 10
11.65599999999999
 20
0.0625
 30
0.0
 11
11.65599999999999
 21
2.0828433267834789
 31
0.0
  0
LINE
  5
112
  8
0
 62
     0
 10
0.1800000000000001
 20
1.902843326783479
 30
0.0
 11
5.2729999999999988
 21
1.902843326783479
 31
0.0
  0
LINE
  5
113
  8
0
 62
     0
 10
11.47599999999999
 20
1.902843326783479
 30
0.0
 11
6.3829999999999991
 21
1.902843326783479
 31
0.0
  0
SOLID
  5
114
  8
0
 62
     0
 10
0.1800000000000001
 20
1.932843326783479
 30
0.0
 11
0.1800000000000001
 21
1.872843326783479
 31
0.0
 12
0.0000000000000001
 22
1.902843326783479
 32
0.0
 13
0.0000000000000001
 23
1.902843326783479
 33
0.0
  0
SOLID
  5
115
  8
0
 62
     0
 10
11.47599999999999
 20
1.932843326783479
 30
0.0
 11
11.47599999999999
 21
1.872843326783479
 31
0.0
 12
11.65599999999999
 22
1.902843326783479
 32
0.0
 13
11.65599999999999
 23
1.902843326783479
 33
0.0
  0
TEXT
  5
116
  8
0
 62
     0
 10
5.3629999999999987
 20
1.8128433267834789
 30
0.0
 40
0.18
  1
11.6560
  0
POINT
  5
117
  8
DEFPOINTS
 62
     0
 10
0.0
 20
0.0
 30
0.0
  0
POINT
  5
118
  8
DEFPOINTS
 62
     0
 10
11.65599999999999
 20
0.0
 30
0.0
  0
POINT
  5
119
  8
DEFPOINTS
 62
     0
 10
11.65599999999999
 20
1.902843326783479
 30
0.0
  0
ENDBLK
  5
11B
  8
0
  0
BLOCK
  8
0
  2
*D8
 70
     1
 10
0.0
 20
0.0
 30
0.0
  3
*D8
  1

  0
LINE
  5
164
  8
DIMS
 62
     0
 10
0.157
 20
-0.0625
 30
0.0
 11
0.1569999999999999
 21
-1.9401158121063149
 31
0.0
  0
LINE
  5
165
  8
DIMS
 62
     0
 10
11.49899999999999
 20
-0.0625
 30
0.0
 11
11.49899999999999
 21
-1.9401158121063149
 31
0.0
  0
LINE
  5
166
  8
DIMS
 62
     0
 10
0.3369999999999998
 20
-1.760115812106315
 30
0.0
 11
5.347999999999999
 21
-1.760115812106315
 31
0.0
  0
LINE
  5
167
  8
DIMS
 62
     0
 10
11.31899999999999
 20
-1.760115812106315
 30
0.0
 11
6.3079999999999981
 21
-1.760115812106315
 31
0.0
  0
SOLID
  5
168
  8
DIMS
 62
     0
 10
0.3369999999999998
 20
-1.7301158121063149
 30
0.0
 11
0.3369999999999998
 21
-1.790115812106315
 31
0.0
 12
0.1569999999999999
 22
-1.760115812106315
 32
0.0
 13
0.1569999999999999
 23
-1.760115812106315
 33
0.0
  0
SOLID
  5
169
  8
DIMS
 62
     0
 10
11.31899999999999
 20
-1.7301158121063149
 30
0.0
 11
11.31899999999999
 21
-1.790115812106315
 31
0.0
 12
11.49899999999999
 22
-1.760115812106315
 32
0.0
 13
11.49899999999999
 23
-1.760115812106315
 33
0.0
  0
TEXT
  5
16A
  8
0
 62
     0
 10
5.4379999999999988
 20
-1.850115812106315
 30
0.0
 40
0.18
  1
11.342
  0
POINT
  5
16B
  8
DEFPOINTS
 62
     0
 10
0.157
 20
0.0
 30
0.0
  0
POINT
  5
16C
  8
DEFPOINTS
 62
     0
 10
11.49899999999999
 20
0.0
 30
0.0
  0
POINT
  5
16D
  8
DEFPOINTS
 62
     0
 10
11.49899999999999
 20
-1.760115812106315
 30
0.0
  0
ENDBLK
  5
16F
  8
0
  0
BLOCK
  8
0
  2
*D9
 70
     1
 10
0.0
 20
0.0
 30
0.0
  3
*D9
  1

  0
LINE
  5
172
  8
DIMS
 62
     0
 10
0.8962467378854979
 20
1.548863917983293
 30
0.0
 11
0.7162467378854981
 21
1.548863917983293
 31
0.0
  0
LINE
  5
173
  8
DIMS
 62
     0
 10
0.7162467378854981
 20
1.548863917983293
 30
0.0
 11
0.4945717635074764
 21
0.9349231543193551
 31
0.0
  0
TEXT
  5
174
  8
0
 62
     0
 10
0.9862467378854981
 20
1.458863917983293
 30
0.0
 40
0.18
  1
 0.814
  0
SOLID
  5
175
  8
DIMS
 62
     0
 10
0.4663547668982404
 20
0.9451114369201844
 30
0.0
 11
0.5227887601167124
 21
0.9247348717185259
 31
0.0
 12
0.4334420679025009
 22
0.7656211746639388
 32
0.0
 13
0.4334420679025009
 23
0.7656211746639388
 33
0.0
  0
LINE
  5
176
  8
DIMS
 62
     0
 10
0.0670000000000001
 20
0.0
 30
0.0
 11
0.2470000000000001
 21
0.0
 31
0.0
  0
LINE
  5
177
  8
DIMS
 62
     0
 10
0.157
 20
-0.09
 30
0.0
 11
0.157
 21
0.09
 31
0.0
  0
POINT
  5
178
  8
DEFPOINTS
 62
     0
 10
0.4334420679025009
 20
0.7656211746639388
 30
0.0
  0
POINT
  5
179
  8
DEFPOINTS
 62
     0
 10
0.157
 20
0.0
 30
0.0
  0
ENDBLK
  5
17B
  8
0
  0
BLOCK
  8
0
  2
*D10
 70
     1
 10
0.0
 20
0.0
 30
0.0
  3
*D10
  1

  0
LINE
  5
17E
  8
DIMS
 62
     0
 10
6.737333727485642
 20
1.3666513779213929
 30
0.0
 11
6.5573337274856431
 21
1.366651377921392
 31
0.0
  0
LINE
  5
17F
  8
DIMS
 62
     0
 10
6.5573337274856431
 20
1.366651377921392
 30
0.0
 11
6.0835906002176241
 21
1.071979385708945
 31
0.0
  0
TEXT
  5
180
  8
0
 62
     0
 10
6.8273337274856427
 20
1.2766513779213919
 30
0.0
 40
0.18
  1
0.121
  0
SOLID
  5
181
  8
DIMS
 62
     0
 10
6.0677454787183942
 20
1.0974535319100369
 30
0.0
 11
6.099435721716854
 21
1.0465052395078529
 31
0.0
 12
5.9307457230110714
 22
0.9769086567135638
 32
0.0
 13
5.9307457230110714
 23
0.9769086567135638
 33
0.0
  0
LINE
  5
182
  8
DIMS
 62
     0
 10
5.7379999999999942
 20
0.9129999999999995
 30
0.0
 11
5.917999999999993
 21
0.9129999999999993
 31
0.0
  0
LINE
  5
183
  8
DIMS
 62
     0
 10
5.8279999999999941
 20
0.8229999999999986
 30
0.0
 11
5.8279999999999941
 21
1.002999999999999
 31
0.0
  0
POINT
  5
184
  8
DEFPOINTS
 62
     0
 10
5.9307457230110714
 20
0.9769086567135638
 30
0.0
  0
POINT
  5
185
  8
DEFPOINTS
 62
     0
 10
5.8279999999999941
 20
0.9129999999999993
 30
0.0
  0
ENDBLK
  5
187
  8
0
  0
BLOCK
  8
0
  2
*D11
 70
     1
 10
0.0
 20
0.0
 30
0.0
  3
*D11
  1

  0
LINE
  5
18A
  8
DIMS
 62
     0
 10
4.9699307421662517
 20
1.2500353420198029
 30
0.0
 11
5.1499307421662532
 21
1.250035342019802
 31
0.0
  0
LINE
  5
18B
  8
DIMS
 62
     0
 10
5.1499307421662532
 20
1.250035342019802
 30
0.0
 11
5.4568231972970098
 21
1.0974939867182281
 31
0.0
  0
TEXT
  5
18C
  8
0
 62
     0
 10
4.1899307421662533
 20
1.160035342019802
 30
0.0
 40
0.18
  1
0.234
  0
SOLID
  5
18D
  8
DIMS
 62
     0
 10
5.4701761999545422
 20
1.1243584115218219
 30
0.0
 11
5.4434701946394792
 21
1.0706295619146351
 31
0.0
 12
5.618009746118573
 22
1.0173759707730381
 32
0.0
 13
5.618009746118573
 23
1.0173759707730381
 33
0.0
  0
LINE
  5
18E
  8
DIMS
 62
     0
 10
5.7379999999999978
 20
0.9129999999999999
 30
0.0
 11
5.9179999999999984
 21
0.9130000000000001
 31
0.0
  0
LINE
  5
18F
  8
DIMS
 62
     0
 10
5.8279999999999976
 20
0.8229999999999995
 30
0.0
 11
5.8279999999999967
 21
1.002999999999999
 31
0.0
  0
POINT
  5
190
  8
DEFPOINTS
 62
     0
 10
5.618009746118573
 20
1.0173759707730381
 30
0.0
  0
POINT
  5
191
  8
DEFPOINTS
 62
     0
 10
5.8279999999999976
 20
0.9129999999999999
 30
0.0
  0
ENDBLK
  5
193
  8
0
  0
BLOCK
  8
0
  2
*D12
 70
     1
 10
0.0
 20
0.0
 30
0.0
  3
*D12
  1

  0
LINE
  5
196
  8
DIMS
 62
     0
 10
5.5939999999999994
 20
1.922422449069797
 30
0.0
 11
5.5939999999999994
 21
3.4416617849445599
 31
0.0
  0
LINE
  5
197
  8
DIMS
 62
     0
 10
6.0619999999999967
 20
1.922422449069797
 30
0.0
 11
6.0619999999999967
 21
3.4416617849445599
 31
0.0
  0
LINE
  5
198
  8
DIMS
 62
     0
 10
5.4139999999999988
 20
3.261661784944561
 30
0.0
 11
5.2339999999999991
 21
3.261661784944561
 31
0.0
  0
LINE
  5
199
  8
DIMS
 62
     0
 10
6.2419999999999973
 20
3.261661784944561
 30
0.0
 11
6.421999999999997
 21
3.261661784944561
 31
0.0
  0
SOLID
  5
19A
  8
DIMS
 62
     0
 10
5.4139999999999988
 20
3.29166178494456
 30
0.0
 11
5.4139999999999988
 21
3.2316617849445608
 31
0.0
 12
5.5939999999999994
 22
3.261661784944561
 32
0.0
 13
5.5939999999999994
 23
3.261661784944561
 33
0.0
  0
SOLID
  5
19B
  8
DIMS
 62
     0
 10
6.2419999999999973
 20
3.29166178494456
 30
0.0
 11
6.2419999999999973
 21
3.2316617849445608
 31
0.0
 12
6.0619999999999967
 22
3.261661784944561
 32
0.0
 13
6.0619999999999967
 23
3.261661784944561
 33
0.0
  0
TEXT
  5
19C
  8
0
 62
     0
 10
6.5119999999999969
 20
3.1716617849445612
 30
0.0
 40
0.18
  1
0.468
  0
POINT
  5
19D
  8
DEFPOINTS
 62
     0
 10
5.5939999999999994
 20
1.859922449069797
 30
0.0
  0
POINT
  5
19E
  8
DEFPOINTS
 62
     0
 10
6.0619999999999967
 20
1.859922449069797
 30
0.0
  0
POINT
  5
19F
  8
DEFPOINTS
 62
     0
 10
6.0619999999999967
 20
3.261661784944561
 30
0.0
  0
ENDBLK
  5
1A1
  8
0
  0
BLOCK
  8
0
  2
*D13
 70
     1
 10
0.0
 20
0.0
 30
0.0
  3
*D13
  1

  0
LINE
  5
1A4
  8
DIMS
 62
     0
 10
6.1244999999999994
 20
1.7019224490697979
 30
0.0
 11
6.693580259522351
 21
1.7019224490697971
 31
0.0
  0
LINE
  5
1A5
  8
DIMS
 62
     0
 10
6.1244999999999976
 20
1.859922449069797
 30
0.0
 11
6.693580259522351
 21
1.859922449069797
 31
0.0
  0
LINE
  5
1A6
  8
DIMS
 62
     0
 10
6.5135802595223522
 20
1.521922449069798
 30
0.0
 11
6.5135802595223522
 21
1.341922449069797
 31
0.0
  0
LINE
  5
1A7
  8
DIMS
 62
     0
 10
6.5135802595223531
 20
2.0399224490697971
 30
0.0
 11
6.5135802595223531
 21
2.2199224490697969
 31
0.0
  0
LINE
  5
1A8
  8
DIMS
 62
     0
 10
6.5135802595223531
 20
2.2199224490697969
 30
0.0
 11
6.6935802595223519
 21
2.2199224490697969
 31
0.0
  0
SOLID
  5
1A9
  8
DIMS
 62
     0
 10
6.4835802595223511
 20
1.521922449069798
 30
0.0
 11
6.5435802595223516
 21
1.521922449069798
 31
0.0
 12
6.5135802595223522
 22
1.7019224490697971
 32
0.0
 13
6.5135802595223522
 23
1.7019224490697971
 33
0.0
  0
SOLID
  5
1AA
  8
DIMS
 62
     0
 10
6.483580259522352
 20
2.0399224490697971
 30
0.0
 11
6.5435802595223533
 21
2.0399224490697971
 31
0.0
 12
6.5135802595223522
 22
1.859922449069797
 32
0.0
 13
6.5135802595223522
 23
1.859922449069797
 33
0.0
  0
TEXT
  5
1AB
  8
0
 62
     0
 10
6.7835802595223518
 20
2.1299224490697979
 30
0.0
 40
0.18
  1
0.158
  0
POINT
  5
1AC
  8
DEFPOINTS
 62
     0
 10
6.0619999999999994
 20
1.7019224490697979
 30
0.0
  0
POINT
  5
1AD
  8
DEFPOINTS
 62
     0
 10
6.0619999999999976
 20
1.859922449069797
 30
0.0
  0
POINT
  5
1AE
  8
DEFPOINTS
 62
     0
 10
6.5135802595223522
 20
1.859922449069797
 30
0.0
  0
ENDBLK
  5
1B0
  8
0
  0
BLOCK
  8
0
  2
*D14
 70
     1
 10
0.0
 20
0.0
 30
0.0
  3
*D14
  1

  0
LINE
  5
1B3
  8
DIMS
 62
     0
 10
5.5314999999999994
 20
1.7019224490697979
 30
0.0
 11
3.4239751239075908
 21
1.7019224490697991
 31
0.0
  0
LINE
  5
1B4
  8
DIMS
 62
     0
 10
5.5315000000000003
 20
1.859922449069797
 30
0.0
 11
3.4239751239075908
 21
1.8599224490697981
 31
0.0
  0
LINE
  5
1B5
  8
DIMS
 62
     0
 10
3.603975123907591
 20
1.521922449069798
 30
0.0
 11
3.603975123907591
 21
1.3419224490697981
 31
0.0
  0
LINE
  5
1B6
  8
DIMS
 62
     0
 10
3.603975123907591
 20
2.039922449069798
 30
0.0
 11
3.603975123907591
 21
2.2199224490697982
 31
0.0
  0
LINE
  5
1B7
  8
DIMS
 62
     0
 10
3.603975123907591
 20
2.2199224490697982
 30
0.0
 11
3.7839751239075921
 21
2.2199224490697982
 31
0.0
  0
SOLID
  5
1B8
  8
DIMS
 62
     0
 10
3.5739751239075921
 20
1.521922449069798
 30
0.0
 11
3.6339751239075908
 21
1.521922449069798
 31
0.0
 12
3.603975123907591
 22
1.7019224490697979
 32
0.0
 13
3.603975123907591
 23
1.7019224490697979
 33
0.0
  0
SOLID
  5
1B9
  8
DIMS
 62
     0
 10
3.5739751239075921
 20
2.039922449069798
 30
0.0
 11
3.6339751239075908
 21
2.039922449069798
 31
0.0
 12
3.603975123907591
 22
1.8599224490697981
 32
0.0
 13
3.603975123907591
 23
1.8599224490697981
 33
0.0
  0
TEXT
  5
1BA
  8
0
 62
     0
 10
3.873975123907591
 20
2.1299224490697979
 30
0.0
 40
0.18
  1
0.158
  0
POINT
  5
1BB
  8
DEFPOINTS
 62
     0
 10
5.5939999999999994
 20
1.7019224490697979
 30
0.0
  0
POINT
  5
1BC
  8
DEFPOINTS
 62
     0
 10
5.5940000000000003
 20
1.859922449069797
 30
0.0
  0
POINT
  5
1BD
  8
DEFPOINTS
 62
     0
 10
3.603975123907591
 20
1.8599224490697981
 30
0.0
  0
ENDBLK
  5
1BF
  8
0
  0
BLOCK
  8
0
  2
*D15
 70
     1
 10
0.0
 20
0.0
 30
0.0
  3
*D15
  1

  0
LINE
  5
1C2
  8
DIMS
 62
     0
 10
11.43649999999999
 20
0.0
 30
0.0
 11
7.5732616332602509
 21
0.0000000000000011
 31
0.0
  0
LINE
  5
1C3
  8
DIMS
 62
     0
 10
5.8904999999999994
 20
0.913
 30
0.0
 11
7.9332616332602512
 21
0.9129999999999995
 31
0.0
  0
LINE
  5
1C4
  8
DIMS
 62
     0
 10
7.7532616332602506
 20
0.1800000000000011
 30
0.0
 11
7.7532616332602506
 21
0.2765000000000003
 31
0.0
  0
LINE
  5
1C5
  8
DIMS
 62
     0
 10
7.7532616332602506
 20
0.7329999999999995
 30
0.0
 11
7.7532616332602506
 21
0.6365000000000003
 31
0.0
  0
SOLID
  5
1C6
  8
DIMS
 62
     0
 10
7.7232616332602513
 20
0.1800000000000011
 30
0.0
 11
7.7832616332602509
 21
0.1800000000000011
 31
0.0
 12
7.7532616332602506
 22
0.0000000000000011
 32
0.0
 13
7.7532616332602506
 23
0.0000000000000011
 33
0.0
  0
SOLID
  5
1C7
  8
DIMS
 62
     0
 10
7.7232616332602513
 20
0.7329999999999997
 30
0.0
 11
7.7832616332602509
 21
0.7329999999999995
 31
0.0
 12
7.7532616332602506
 22
0.9129999999999995
 32
0.0
 13
7.7532616332602506
 23
0.9129999999999995
 33
0.0
  0
TEXT
  5
1C8
  8
0
 62
     0
 10
7.4382616332602511
 20
0.3665000000000016
 30
0.0
 40
0.18
  1
0.913
  0
POINT
  5
1C9
  8
DEFPOINTS
 62
     0
 10
11.49899999999999
 20
0.0
 30
0.0
  0
POINT
  5
1CA
  8
DEFPOINTS
 62
     0
 10
5.8279999999999994
 20
0.913
 30
0.0
  0
POINT
  5
1CB
  8
DEFPOINTS
 62
     0
 10
7.7532616332602506
 20
0.9129999999999995
 30
0.0
  0
ENDBLK
  5
1CD
  8
0
  0
ENDSEC
  0
SECTION
  2
ENTITIES
  0
CIRCLE
  5
2B
  8
0
 10
0.157
 20
0.0
 30
0.0
 40
0.814
  0
CIRCLE
  5
2C
  8
0
 10
11.49899999999999
 20
0.0
 30
0.0
 40
0.814
  0
ARC
  5
3F
  8
0
 10
5.8279999999999976
 20
-18.465623157894729
 30
0.0
 40
18.351623157894728
 50
75.39624738371262
 51
104.6037526162873
  0
ARC
  5
4F
  8
0
 10
6.0279999999999987
 20
68.77016799999997
 30
0.0
 40
68.306167999999957
 50
265.98093187329528
 51
266.73797894551922
  0
LINE
  5
61
  8
0
 10
2.1677184027130449
 20
-0.1142783747864783
 30
0.0
 11
2.6890540597378978
 21
0.4772670006056601
 31
0.0
  0
LINE
  5
62
  8
0
 10
9.4882815972869246
 20
-0.1142783747864647
 30
0.0
 11
8.9669459402620681
 21
0.4772670006056627
 31
0.0
  0
LINE
  5
68
  8
0
 10
2.9702668648647021
 20
0.5437654812063864
 30
0.0
 11
3.8296937261971928
 21
0.1965137562372424
 31
0.0
  0
LINE
  5
69
  8
0
 10
8.6857331351352673
 20
0.5437654812063872
 30
0.0
 11
7.8263062738027864
 21
0.1965137562372492
 31
0.0
  0
ARC
  5
6B
  8
0
 10
5.227999999999998
 20
-18.51562315789473
 30
0.0
 40
18.766623157894731
 50
77.083121373429066
 51
81.993018685021966
  0
ARC
  5
6D
  8
0
 10
5.6279999999999992
 20
68.77016799999997
 30
0.0
 40
68.306167999999957
 50
273.26202105448073
 51
274.01906812670461
  0
ARC
  5
6E
  8
0
 10
5.8279999999999994
 20
68.77016799999997
 30
0.0
 40
68.306167999999957
 50
268.9818742114885
 51
271.01812578851138
  0
ARC
  5
74
  8
0
 10
5.8279999999999861
 20
3.8731327292744822
 30
0.0
 40
3.73913272927448
 50
250.6799882461479
 51
289.32001175385199
  0
ARC
  5
76
  8
0
 10
7.042903135189845
 20
0.407794484093401
 30
0.0
 40
0.067
 50
289.32001175385051
 51
91.018125788519711
  0
ARC
  5
77
  8
0
 10
4.613096864810128
 20
0.4077944840934019
 30
0.0
 40
0.067
 50
88.981874211479493
 51
250.67998824614631
  0
ARC
  5
78
  8
0
 10
6.4279999999999982
 20
-18.51562315789473
 30
0.0
 40
18.766623157894731
 50
98.006981314978077
 51
102.91687862657091
  0
ARC
  5
7F
  8
0
 10
2.2179835043689029
 20
-0.1585775796949882
 30
0.0
 40
0.067
 50
138.60990631976421
 51
282.91687862657568
  0
ARC
  5
80
  8
0
 10
3.8045937960790681
 20
0.1343929585277372
 30
0.0
 40
0.067
 50
278.00698131498439
 51
67.998811714571005
  0
ARC
  5
81
  8
0
 10
7.8514062039209103
 20
0.1343929585277443
 30
0.0
 40
0.067
 50
112.001188285428
 51
261.99301868501971
  0
ARC
  5
82
  8
0
 10
9.4380164956310661
 20
-0.1585775796949775
 30
0.0
 40
0.067
 50
257.08312137343
 51
41.390093680237513
  0
ARC
  5
88
  8
0
 10
8.7793895907999122
 20
0.3119714599022636
 30
0.0
 40
0.25
 50
41.390093680236397
 51
112.0011882854286
  0
ARC
  5
89
  8
0
 10
2.8766104092000568
 20
0.3119714599022628
 30
0.0
 40
0.25
 50
67.998811714571289
 51
138.60990631976409
  0
ARC
  5
8C
  8
0
 10
0.2
 20
-0.1
 30
0.0
 40
1.1639999999999999
 50
349.9275460878842
 51
32.706019665203833
  0
LINE
  5
8D
  8
0
 10
1.4622921630393511
 20
-0.359592963466661
 30
0.0
 11
2.1876776024640501
 21
0.463482144261909
 31
0.0
  0
ARC
  5
8E
  8
0
 10
11.455999999999991
 20
-0.1
 30
0.0
 40
1.1639999999999999
 50
147.29398033479609
 51
190.07245391211589
  0
LINE
  5
8F
  8
0
 10
10.193707836960639
 20
-0.3595929634666655
 30
0.0
 11
9.4683223975359248
 21
0.46348214426191
 31
0.0
  0
ARC
  5
90
  8
0
 10
10.420170103787481
 20
0.5651446655520633
 30
0.0
 40
0.067
 50
327.29398033479652
 51
94.019068126721507
  0
ARC
  5
91
  8
0
 10
10.243972938616499
 20
-0.315293758558155
 30
0.0
 40
0.067
 50
221.39009368023591
 51
10.07245391211611
  0
ARC
  5
92
  8
0
 10
9.5185874991917832
 20
0.5077813491704234
 30
0.0
 40
0.067
 50
93.262021054499286
 51
221.3900936802369
  0
ARC
  5
93
  8
0
 10
2.1374125008081868
 20
0.5077813491704234
 30
0.0
 40
0.067
 50
318.60990631976398
 51
86.737978945499563
  0
ARC
  5
94
  8
0
 10
1.2358298962125169
 20
0.5651446655520633
 30
0.0
 40
0.067
 50
85.980931873299696
 51
212.70601966520371
  0
ARC
  5
95
  8
0
 10
1.412027061383492
 20
-0.3152937585581506
 30
0.0
 40
0.067
 50
169.92754608788459
 51
318.60990631976409
  0
ARC
  5
12A
  8
0
 10
11.49899999999999
 20
0.0
 30
0.0
 40
1.034
 50
243.49379062448219
 51
107.65492960202521
  0
ARC
  5
12B
  8
0
 10
0.157
 20
0.0
 30
0.0
 40
1.034
 50
72.345070397974723
 51
296.5062093755177
  0
ARC
  5
12E
  8
0
 10
1.957353215729642
 20
-3.6099701243378641
 30
0.0
 40
3.0
 50
104.6037526162872
 51
116.5062093755177
  0
LINE
  5
135
  8
0
 10
1.380445953035931
 20
0.8440000000000001
 30
0.0
 11
4.2042699577823894
 21
0.8440000000000001
 31
0.0
  0
CIRCLE
  5
137
  8
0
 10
5.8279999999999994
 20
0.913
 30
0.0
 40
0.121
  0
ARC
  5
138
  8
0
 10
1.380445953035931
 20
3.8439999999999999
 30
0.0
 40
3.0
 50
252.34507039797469
 51
270.0
  0
ARC
  5
139
  8
0
 10
10.275554046964061
 20
3.8439999999999999
 30
0.0
 40
3.0
 50
270.0
 51
287.65492960202522
  0
CIRCLE
  5
13A
  8
0
 10
5.8279999999999994
 20
0.913
 30
0.0
 40
0.2345
  0
ARC
  5
13B
  8
0
 10
5.8279999999999994
 20
0.943
 30
0.0
 40
0.3245
 50
60.76365384003649
 51
119.2363461599635
  0
LINE
  5
13E
  8
0
 10
10.275554046964061
 20
0.8440000000000003
 30
0.0
 11
7.4517300422176094
 21
0.8440000000000003
 31
0.0
  0
ARC
  5
146
  8
0
 10
9.6986467842703608
 20
-3.609970124337865
 30
0.0
 40
3.0
 50
63.493790624482322
 51
75.396247383712648
  0
ARC
  5
14C
  8
0
 10
4.2042699577823894
 20
3.843999999999999
 30
0.0
 40
3.0
 50
270.0
 51
299.23634615996349
  0
ARC
  5
14D
  8
0
 10
7.4517300422176094
 20
3.843999999999999
 30
0.0
 40
3.0
 50
240.7636538400364
 51
270.0
  0
LINE
  5
158
  8
DIMS
 10
4.3404917253452382
 20
1.7019224490697971
 30
0.0
 11
5.5940000000000003
 21
1.7019224490697979
 31
0.0
  0
LINE
  5
159
  8
DIMS
 10
4.3404917253452382
 20
2.7019224490697971
 30
0.0
 11
5.706999999999999
 21
2.7019224490697971
 31
0.0
  0
LINE
  5
15A
  8
DIMS
 10
5.5940000000000003
 20
1.859922449069797
 30
0.0
 11
5.706999999999999
 21
1.859922449069797
 31
0.0
  0
LINE
  5
15B
  8
DIMS
 10
5.948999999999999
 20
1.859922449069797
 30
0.0
 11
5.9489999999999981
 21
2.6996011692465558
 31
0.0
  0
LINE
  5
15C
  8
DIMS
 10
5.706999999999999
 20
1.859922449069797
 30
0.0
 11
5.706999999999999
 21
2.7019224490697971
 31
0.0
  0
LINE
  5
15D
  8
DIMS
 10
6.0619999999999976
 20
1.7019224490697979
 30
0.0
 11
6.0619999999999976
 21
1.859922449069797
 31
0.0
  0
LINE
  5
15E
  8
DIMS
 10
5.5939999999999994
 20
1.7019224490697979
 30
0.0
 11
5.5939999999999994
 21
1.859922449069797
 31
0.0
  0
LINE
  5
15F
  8
DIMS
 10
5.948999999999999
 20
1.859922449069797
 30
0.0
 11
6.0619999999999967
 21
1.859922449069797
 31
0.0
  0
LINE
  5
160
  8
DIMS
 10
6.0619999999999994
 20
1.7019224490697979
 30
0.0
 11
7.8553530585078661
 21
1.7019224490697971
 31
0.0
  0
LINE
  5
161
  8
DIMS
 10
5.9489999999999981
 20
2.6996011692465558
 30
0.0
 11
7.8553530585078661
 21
2.6996011692465558
 31
0.0
  0
DIMENSION
  5
162
  8
DIMS
  2
*D8
 10
11.49899999999999
 20
-1.760115812106315
 30
0.0
 11
5.8279999999999994
 21
-1.760115812106315
 31
0.0
 70
     0
  1
11.342
 13
0.157
 23
0.0
 33
0.0
 14
11.49899999999999
 24
0.0
 34
0.0
  0
DIMENSION
  5
170
  8
DIMS
  2
*D9
 10
0.157
 20
0.0
 30
0.0
 11
1.391246737885498
 21
1.548863917983293
 31
0.0
 70
   132
  1
 0.814
 15
0.4334420679025009
 25
0.7656211746639388
 35
0.0
 40
0.0
1001
ACAD
1000
DSTYLE
1002
{
1070
   288
1070
     1
1002
}
  0
DIMENSION
  5
17C
  8
DIMS
  2
*D10
 10
5.8279999999999941
 20
0.9129999999999993
 30
0.0
 11
7.1123337274856429
 21
1.366651377921392
 31
0.0
 70
   132
  1
0.121
 15
5.9307457230110714
 25
0.9769086567135638
 35
0.0
 40
0.0
1001
ACAD
1000
DSTYLE
1002
{
1070
   288
1070
     1
1002
}
  0
DIMENSION
  5
188
  8
DIMS
  2
*D11
 10
5.8279999999999976
 20
0.9129999999999999
 30
0.0
 11
4.534930742166253
 21
1.250035342019802
 31
0.0
 70
   132
  1
0.234
 15
5.618009746118573
 25
1.0173759707730381
 35
0.0
 40
0.0
1001
ACAD
1000
DSTYLE
1002
{
1070
   288
1070
     1
1002
}
  0
DIMENSION
  5
1B1
  8
DIMS
  2
*D14
 10
3.603975123907591
 20
1.8599224490697981
 30
0.0
 11
4.1889751239075901
 21
2.2199224490697982
 31
0.0
 70
     0
  1
0.158
 13
5.5939999999999994
 23
1.7019224490697979
 33
0.0
 14
5.5940000000000003
 24
1.859922449069797
 34
0.0
 50
90.0
  0
DIMENSION
  5
1C0
  8
DIMS
  2
*D15
 10
7.7532616332602506
 20
0.9129999999999995
 30
0.0
 11
7.7532616332602506
 21
0.4565000000000016
 31
0.0
 70
     0
  1
0.913
 13
11.49899999999999
 23
0.0
 33
0.0
 14
5.8279999999999994
 24
0.913
 34
0.0
 50
90.0
  0
ENDSEC
  0
EOF
